2013Zone For Latest Downloads

 
     
 
Legal Downloads » Music » Susan Wong My Live Stories (2013)
Menu
Home Applications
Games Movies
Music TV Shows
Torrents Graphics

Sitemap

RSS
 
Advanced Search
Last News
Site Info
Top Contributors:
  1    supper88 32766
  2    admin 32747
  3    Whisky 10080
  4    Shark_ 8911
  5    creativelivenew 8706
  6    whathesupa 2799
  7    candymypost 840
  8    hvnteam 629
  9    vuong87 3


Articles:
  This Hour: 0
  Today: 0
  This Month: 16
  All Time: 515461


Torrents:
  Today: 0
  Yesterday: 0
  All Time: 156711


Membership:
  Registered Today :0
  This Hour:0
  This Month:0
  Total:14
  Banned:1

{online}
{inform_torrent}
Friend:
Full Download Scripts
Torrent Download
Trend
Trend

Search In Site

Music : Susan Wong My Live Stories (2013)
 
http://i64.fastpic.ru/big/2015/0112/8e/5ee69c94234d27ee43be0e660320cc8e.jpg

Susan Wong My Live Stories (2013)
Vocal Jazz | Bluray-rip 1080p | Audio: English | Subtitles: None | Run time: 67 mins | 7.28 GB
AVC, MKV 1920x1080 (16:9) 23.976fps, 11.9Mbps | DTS, 24bits, 6ch, 3283kbps




Tracklisting:

1.You've got a friend
2.Billie Jean
3.Something
4.(They long to be) Close to you
5.September
6.You make me feel like a natural Woman
7.What a difference a day made
8.Perfect
9.Cry me a river
10.I will survive
11.Love will keep us alive
12.California dreaming
13.When you say nothing at all
14.Sometimes when we touch
15.Have you ever seen the rain
16.Do that to me one more time
17.Desperado

Screeshots

http://i68.fastpic.ru/big/2015/0112/05/db11fe0490ed45deacd3fe92b402c105.jpg



Video
ID : 1
Format : AVC
Format/Info : Advanced Video Codec
Format profile : [email protected]
Format settings, CABAC : Yes
Format settings, ReFrames : 3 frames
Codec ID : V_MPEG4/ISO/AVC
Duration : 1h 7mn
Bit rate mode : Variable
Bit rate : 11.9 Mbps
Maximum bit rate : 25.0 Mbps
Width : 1 920 pixels
Height : 1 080 pixels
Display aspect ratio : 16:9
Frame rate : 23.976 fps
Color space : YUV
Chroma subsampling : 4:2:0
Bit depth : 8 bits
Scan type : Progressive
Bits/(Pixel*Frame) : 0.239
Stream size : 5.59 GiB (77%)
Writing library : x264 core 114 r1924 08d04a4
Encoding settings : cabac=1 / ref=3 / deblock=1:0:0 / analyse=0x3:0x133 / me=umh / subme=7 / psy=1 / psy_rd=1.00:0.00 / mixed_ref=1 / me_range=16 / chroma_me=1 / trellis=1 / 8x8dct=1 / cqm=0 / deadzone=21,11 / fast_pskip=1 / chroma_qp_offset=-2 / threads=12 / sliced_threads=0 / nr=0 / decimate=1 / interlaced=0 / constrained_intra=0 / bframes=3 / b_pyramid=0 / b_adapt=1 / b_bias=0 / direct=1 / weightb=1 / open_gop=0 / weightp=2 / keyint=240 / keyint_min=24 / scenecut=40 / intra_refresh=0 / rc_lookahead=40 / rc=crf / mbtree=1 / crf=18.0 / qcomp=0.60 / qpmin=0 / qpmax=69 / qpstep=4 / vbv_maxrate=25000 / vbv_bufsize=25000 / crf_max=0.0 / nal_hrd=vbr / ip_ratio=1.40 / aq=1:1.00

Audio
ID : 2
Format : DTS
Format/Info : Digital Theater Systems
Format profile : 96/24
Codec ID : A_DTS
Duration : 1h 7mn
Bit rate mode : Constant
Bit rate : 3 283 Kbps
Channel(s) : 6 channels
Channel positions : Front: L C R, Side: L R, LFE
Sampling rate : 96.0 KHz
Bit depth : 24 bits
Compression mode : Lossy
Stream size : 1.55 GiB (21%)
Language : English

Menu
00:00:00.000 : en:Chapter 00
00:00:20.603 : en:Chapter 01
00:04:38.820 : en:Chapter 02
00:05:32.040 : en:Chapter 03
00:09:00.790 : en:Chapter 04
00:12:00.803 : en:Chapter 05
00:15:14.830 : en:Chapter 06
00:15:53.702 : en:Chapter 07
00:19:22.035 : en:Chapter 08
00:22:58.835 : en:Chapter 09
00:26:27.168 : en:Chapter 10
00:27:06.416 : en:Chapter 11
00:30:56.271 : en:Chapter 12
00:34:29.692 : en:Chapter 13
00:35:03.643 : en:Chapter 14
00:38:16.043 : en:Chapter 15
00:43:02.788 : en:Chapter 16
00:46:26.867 : en:Chapter 17
00:46:47.429 : en:Chapter 18
00:50:45.667 : en:Chapter 19
00:54:52.789 : en:Chapter 20
00:55:30.618 : en:Chapter 21
00:58:40.141 : en:Chapter 22
01:02:31.789 : en:Chapter 23
01:02:57.523 : en:Chapter 24
DOWNLOAD LINKS:
Buy Premium From My Links To Get Resumable Support,Max Speed & Support Me


Links are Interchangeable - No Password - Single Extraction

Susan Wong My Live Stories (2013) Fast Download



 
 
 
Dear visitor, you went to the site as an unregistered user. We encourage you to register or enter the site under your name.
 
   
 
 (Votes #: 0)